西西论坛

 找回密码
 立即注册
搜索

[4K-Remux] [BT下载]救世超能:永无止境 2018.2160p.BluRay.REMUX.HEVC.DTS-FGT 51GB

[复制链接]
电影首发 发表于 2018-11-9 10:16:33 | 显示全部楼层 |阅读模式

译  名 救世超能:永无止境
片  名 Higher Power
年  代 2018
产  地 美国
类  别 动作/科幻/惊悚
语  言 英语
上映日期 2018-05-11(美国)
IMDb评分  4.0/10 from 612 users
片  长 92分钟
导  演 Matthew Charles Santoro
主  演 乔丹·莘森 Jordan Hinson
      朗·埃达德 Ron Eldard
      科鲁姆·费奥瑞 Colm Feore
      奥斯汀·斯托维尔 Austin Stowell
      Jade Tailor
      汤姆·怀特 Tom Wright
      Winston James Francis
      理查德·波特诺 Richard Portnow
      梅·梅纳康 Mei Melançon
      玛丽·贾菲 Marielle Jaffe
      劳拉·玛高丽丝 Laura Margolis
      奥玛·杜姆 Omar Doom
      Linc Hand
      Richard Dorton
      Fitz Houston


简  介


  当宇宙做出了它的决定,抵抗是徒劳的。由于家人陷入危险,约瑟夫·斯特德曼发现自己被迫成了一个疯狂科学家的实验对象,进行一场拯救世界或是毁灭世界的战斗。


Video #1
ID : 1
Format : HEVC
Format/Info : High Efficiency Video Coding
Commercial name : HDR10
Format profile : Main 10@L5.1@High
Codec ID : V_MPEGH/ISO/HEVC
Duration : 1 h 32 min
Bit rate : 64.7 Mb/s
Width : 3 840 pixels
Height : 2 160 pixels
Display aspect ratio : 16:9
Frame rate mode : Constant
Frame rate : 23.976 (24000/1001) FPS
Color space : YUV
Chroma subsampling : 4:2:0 (Type 2)
Bit depth : 10 bits
Bits/(Pixel*Frame) : 0.325
Stream size : 42.0 GiB (81%)
Title : Higher.Power.2018.2160p.BluRay.REMUX.HEVC.DTS-HD.MA.TrueHD.7.1.Atmos-FGT
Default : Yes
Forced : No
Color range : Limited
Color primaries : BT.2020
Transfer characteristics : PQ
Matrix coefficients : BT.2020 non-constant
Mastering display color primaries : Display P3
Mastering display luminance : min: 0.0001 cd/m2, max: 1000 cd/m2

Video #2
ID : 2
Format : HEVC
Format/Info : High Efficiency Video Coding
Commercial name : HDR10
Format profile : Main 10@L5.1@High
Codec ID : V_MPEGH/ISO/HEVC
Duration : 1 h 32 min
Bit rate : 7 447 kb/s
Width : 1 920 pixels
Height : 1 080 pixels
Display aspect ratio : 16:9
Frame rate mode : Constant
Frame rate : 23.976 (24000/1001) FPS
Color space : YUV
Chroma subsampling : 4:2:0 (Type 2)
Bit depth : 10 bits
Bits/(Pixel*Frame) : 0.150
Stream size : 4.83 GiB (9%)
Title : Higher.Power.2018.2160p.BluRay.REMUX.HEVC.DTS-HD.MA.TrueHD.7.1.Atmos-FGT
Default : No
Forced : No
Color range : Limited
Color primaries : BT.2020
Transfer characteristics : PQ
Matrix coefficients : BT.2020 non-constant
Mastering display color primaries : Display P3
Mastering display luminance : min: 0.0001 cd/m2, max: 1000 cd/m2

Audio #1
ID : 3
Format : TrueHD
Format profile : TrueHD+Atmos / TrueHD
Codec ID : A_TRUEHD
Duration : 1 h 32 min
Bit rate mode : Variable
Bit rate : 3 106 kb/s
Maximum bit rate : 5 619 kb/s
Channel(s) : Object Based / 8 channels
Channel positions : Object Based / Front: L C R, Side: L R, Back: L R, LFE
Sampling rate : / 48.0 kHz
Frame rate : 1 200.000 FPS (40 SPF)
Compression mode : Lossless
Stream size : 2.02 GiB (4%)
Title : Higher.Power.2018.2160p.BluRay.REMUX.HEVC.DTS-HD.MA.TrueHD.7.1.Atmos-FGT
Language : English
Default : Yes
Forced : No

Audio #2
ID : 4
Format : DTS
Format/Info : Digital Theater Systems
Format profile : MA / Core
Codec ID : A_DTS
Duration : 1 h 32 min
Bit rate mode : Variable / Constant
Bit rate : 3 593 kb/s / 1 509 kb/s
Channel(s) : 8 channels / 6 channels
Channel positions : Front: L C R, Side: L R, Back: L R, LFE / Front: L C R, Side: L R, LFE
Sampling rate : 48.0 kHz
Frame rate : 93.750 FPS (512 SPF)
Bit depth : 24 bits
Compression mode : Lossless / Lossy
Stream size : 2.33 GiB (5%)
Title : Higher.Power.2018.2160p.BluRay.REMUX.HEVC.DTS-HD.MA.TrueHD.7.1.Atmos-FGT
Language : English
Default : No
Forced : No

Audio #3
ID : 5
Format : AC-3
Format/Info : Audio Coding 3
Codec ID : A_AC3
Duration : 1 h 32 min
Bit rate mode : Constant
Bit rate : 640 kb/s
Channel(s) : 6 channels
Channel positions : Front: L C R, Side: L R, LFE
Sampling rate : 48.0 kHz
Frame rate : 31.250 FPS (1536 SPF)
Bit depth : 16 bits
Compression mode : Lossy
Stream size : 425 MiB (1%)
Title : Higher.Power.2018.2160p.BluRay.REMUX.HEVC.DTS-HD.MA.TrueHD.7.1.Atmos-FGT
Language : English
Service kind : Complete Main
Default : No
Forced : No

Text #1
ID : 6
Format : PGS
Muxing mode : zlib
Codec ID : S_HDMV/PGS
Codec ID/Info : Picture based subtitle format used on BDs/HD-DVDs
Duration : 1 h 31 min
Bit rate : 56.8 kb/s
Count of elements : 2260
Stream size : 37.1 MiB (0%)
Title : English-PGS
Language : English
Default : Yes
Forced : No

Text #2
ID : 7
Format : PGS
Muxing mode : zlib
Codec ID : S_HDMV/PGS
Codec ID/Info : Picture based subtitle format used on BDs/HD-DVDs
Duration : 1 h 32 min
Bit rate : 43.3 kb/s
Count of elements : 1910
Stream size : 28.6 MiB (0%)
Title : Spanish-PGS
Language : Spanish
Default : No
Forced : No

Menu
00:00:00.000 : en:Chapter 1
00:08:28.007 : en:Chapter 2
00:15:04.904 : en:Chapter 3
00:26:35.594 : en:Chapter 4
00:34:07.045 : en:Chapter 5
00:38:03.281 : en:Chapter 6
00:45:15.713 : en:Chapter 7
00:52:44.161 : en:Chapter 8
01:00:58.154 : en:Chapter 9
01:11:56.478 : en:Chapter 10
01:19:16.752 : en:Chapter 11
01:29:21.022 : en:Chapter 12







Higher.Power.2018.2160p.BluRay.REMUX.HEVC.DTS-HD.MA.TrueHD.7.1.Atmos-FGT[btbtt.me].torrent (129.82 KB, 下载次数: 19)
回复

使用道具 举报

小黑屋|西西论坛

本网站所有资源来自网络,如无意中侵犯了您的权益,请发邮件至 804136696@qq.com,立即清除相关链接

GMT+8, 2018-11-19 00:51 , Processed in 0.074882 second(s), 23 queries .

Powered by Discuz! X3.2

© 2001-2013 Comsenz Inc.

快速回复 返回顶部 返回列表