百度云资源论坛

 找回密码
 立即注册

[纯净版][BT下载][燃爱之高岭之花2][WEB-MKV/4.08GB][泰语内封泰韩英软字幕][1080P][P ...

[复制链接]
阿辉 发表于 2022-10-3 20:24:35 | 显示全部楼层 |阅读模式
-->1b15ac2505b659a9be1e5940dab44264.jpg


◎译  名 燃爱之高岭之花第二季 / สปาร์คใจนายจอมหยิ่ง season 2 / 爱的燃烧2 / Spark Jai Nai Jomying 2
◎片  名 สปาร์คใจนายจอมหยิ่ง ซีซั่น2
◎年  代 2022
◎产  地 泰国
◎类  别 剧情 / 喜剧 / 爱情
◎语  言 泰语
◎上映日期 2022-02-05(泰国)
◎IMDb链接
◎豆瓣链接 
◎片  长 120分钟
◎演  员 奈哈·西贡索邦 Naphat Siangsomboon (id:1385525)
       娜帕拉·吉拉威宋誊功 Lapassalan Jiravechsoontornkul (id:1352204)
       抔米提·米弯投瓦兰 Oabnithi Wiwattanawarang (id:1352879)
       达维·格凌陂勒 Tae Darvid Kreepolrerk (id:1378643)
       淳妮苷·内醉 Chonnikan Netjui (id:1338970)
       通坎东·通猜 Thongkanthom Thongchai (id:1425980)
       威思露·和蓝 Witsarut Himmarat (id:1437528)


Video
ID : 1
Format : AVC
Format/Info : Advanced Video Codec
Format profile : [email protected]
Format settings : CABAC / 4 Ref Frames
Format settings, CABAC : Yes
Format settings, Reference frames : 4 frames
Codec ID : V_MPEG4/ISO/AVC
Duration : 1 h 59 min
Bit rate mode : Variable
Bit rate : 4 736 kb/s
Maximum bit rate : 20.0 Mb/s
Width : 1 920 pixels
Height : 1 080 pixels
Display aspect ratio : 16:9
Frame rate mode : Constant
Frame rate : 25.000 FPS
Color space : YUV
Chroma subsampling : 4:2:0
Bit depth : 8 bits
Scan type : Progressive
Bits/(Pixel*Frame) : 0.091
Stream size : 3.97 GiB (97%)
Writing library : x264 core 148 r2727 7d026e8
Encoding settings : cabac=1 / ref=4 / deblock=1:0:0 / analyse=0x3:0x111 / me=umh / subme=10 / psy=1 / psy_rd=1.00:0.00 / mixed_ref=1 / me_range=120 / chroma_me=1 / trellis=2 / 8x8dct=1 / cqm=0 / deadzone=21,11 / fast_pskip=1 / chroma_qp_offset=-2 / threads=6 / lookahead_threads=1 / sliced_threads=0 / nr=0 / decimate=1 / interlaced=0 / bluray_compat=0 / stitchable=1 / constrained_intra=0 / bframes=16 / b_pyramid=2 / b_adapt=2 / b_bias=0 / direct=3 / weightb=1 / open_gop=0 / weightp=2 / keyint=250 / keyint_min=126 / scenecut=0 / intra_refresh=0 / rc_lookahead=250 / rc=crf / mbtree=1 / crf=16.0 / qcomp=0.50 / qpmin=6 / qpmax=51 / qpstep=4 / vbv_maxrate=20000 / vbv_bufsize=25000 / crf_max=0.0 / nal_hrd=vbr / filler=0 / ip_ratio=1.40 / aq=1:0.80
Default : Yes
Forced : No

Audio
ID : 2
Format : AAC LC SBR
Format/Info : Advanced Audio Codec Low Complexity with Spectral Band Replication
Commercial name : HE-AAC
Format settings : Explicit
Codec ID : A_AAC-2
Duration : 1 h 59 min
Bit rate : 128 kb/s
Channel(s) : 2 channels
Channel layout : L R
Sampling rate : 48.0 kHz
Frame rate : 23.438 FPS (2048 SPF)
Compression mode : Lossy
Stream size : 110 MiB (3%)
Language : Thai
Default : Yes
Forced : No

Text #1
ID : 3
Format : UTF-8
Codec ID : S_TEXT/UTF8
Codec ID/Info : UTF-8 Plain Text
Duration : 1 h 58 min
Bit rate : 134 b/s
Frame rate : 0.209 FPS
Count of elements : 1487
Stream size : 117 KiB (0%)
Language : Thai
Default : No
Forced : No

Text #2
ID : 4
Format : UTF-8
Codec ID : S_TEXT/UTF8
Codec ID/Info : UTF-8 Plain Text
Duration : 1 h 59 min
Bit rate : 48 b/s
Frame rate : 0.196 FPS
Count of elements : 1406
Stream size : 42.0 KiB (0%)
Language : English
Default : No
Forced : No

Text #3
ID : 5
Format : UTF-8
Codec ID : S_TEXT/UTF8
Codec ID/Info : UTF-8 Plain Text
Duration : 1 h 58 min
Bit rate : 48 b/s
Frame rate : 0.198 FPS
Count of elements : 1408
Stream size : 42.4 KiB (0%)
Language : Korean
Default : No
Forced : No

Menu
00:00:00.000 : enart 01
01:59:37.000 : en:Credits
ced91569e488a25382e680ef347ce766.jpg


dc69ea9c60dd68e34323e2cff1c0fd76.jpg


f3b08320b2ca81d9fd8986231590ffb8.jpg




本人发布的种子请使用专业BT下载工具:
UT,Bitcomet,qBittorrent,Xdown开启上传后再下载!!!
使用迅雷或网盘离线可能会没速度!!!


视频的网盘资源均修改了视频后缀(如mp4或mkv)修改为.PDF,用以混淆官方视听!
并且加密了文件名,设置了独有的解压密码,请使用WinRAR解压,使用好压或其他可能会出错!!

网盘版所有压缩包下载完毕后解压第一个包即可全部解压(有些可能有解压密码),解压后自行将后缀名“PDF”修改为“mp4或者mkv”后即可正常播放!!!

已完结剧集不再分集打包上传,整体打包后分卷,无法单独下载某一集,需要全部下载后一起解压,敬请知晓!!!
请各位下载的坛友先保存至自己的网盘,然后再进行下载!
不要直接在线观看或者解压,否则会很快被网盘官方发觉并和谐!!

网盘版资源一旦和谐,皆不会免费补档,请谨慎举报资源!!!


请下载完成的朋友自觉做种一段时间,小水管出种不易,且下且珍惜,谢谢!!!
                                                                                                                                                                                                        
                                                                                                                                                                                                                                                                                                                                                                                                                                                                                                                                                                                                                                                                                                                                                                                                                                                        
477377458f96b55fd57c4c2431d5af26.rar (1.17 MB, 下载次数: 0)

回复

使用道具 举报

小黑屋|百度云资源分享吧 ( 京ICP备15014721号-2 )

本网站所有资源来自网络,如无意中侵犯了您的权益,请发邮件至 [email protected],立即清除相关链接

GMT+8, 2022-12-9 07:03 , Processed in 0.059660 second(s), 27 queries .

Powered by Discuz! X3.2

© 2001-2013 Comsenz Inc.

快速回复 返回顶部 返回列表