西西论坛

 找回密码
 立即注册
搜索

[BT下载]的士速递 Taxi.5.2018.FRENCH.1080p.BluRay.x264-Ulysse 7.94GB

[复制链接]
电影首发 发表于 2018-8-10 09:09:48 | 显示全部楼层 |阅读模式



译  名 的士速递5/终极杀阵5(台)/出租车5
片  名 Taxi 5
年  代 2018
产  地 法国
类  别 喜剧/动作/犯罪
语  言 法语/意大利语
上映日期 2018-04-11(法国)/2018-08-03(中国大陆)
IMDb评分  5.1/10 from 1,466 users
西西论坛 http://www.xixi16.com/
片  长 100分钟(中国大陆)/102分钟
导  演 弗兰克·盖思堂彼得 Franck Gastambide
主  演 弗兰克·盖思堂彼得 Franck Gastambide
      马利克·班泽拉 Malik Bentalha
      伯纳尔·法西 Bernard Farcy
      塞尔维托·埃斯波西多 Salvatore Esposito
      萨巴纳·奥扎尼 Sabrina Ouazani
      爱德华·蒙多特 Edouard Montoute
      朗齐·贝迪亚 Ramzy Bedia
      茂萨·马斯克里 Moussa Maaskri
      夏洛特·加布里斯 Charlotte Gabris


简  介


  巴黎警官西尔万(弗兰克·盖思堂彼得 饰)因执行任务的方式过于激进,被调任马赛 社区警局。赴任第一天,便遇到意大利超跑帮抢劫珠宝,劫匪驾驶着法拉利风驰电 掣,让西尔万和“各怀绝技”的警员们“望尘莫及”、出尽洋相。正当西尔万一筹 莫展之际,他结识了憨厚莽撞的出租车司机埃迪(马利克·班泽拉 饰)。两人毫无默 契,却要合力抓捕疑犯,一场状况频出、笑料横行的猫鼠游戏即刻展开......


Video
ID : 1
Format : AVC
Format/Info : Advanced Video Codec
Format profile : Hig4.1
Format settings : CABAC / 5 Ref Frames
Format settings, CABAC : Yes
Format settings, ReFrames : 5 frames
Codec ID : V_MPEG4/ISO/AVC
Duration : 1 h 41 min
Bit rate : 9 655 kb/s
Width : 1 920 pixels
Height : 808 pixels
Display aspect ratio : 2.40:1
Frame rate mode : Constant
Frame rate : 24.000 FPS
Color space : YUV
Chroma subsampling : 4:2:0
Bit depth : 8 bits
Scan type : Progressive
Bits/(Pixel*Frame) : 0.259
Stream size : 6.87 GiB (86%)
Title : Taxi.5.2018.FRENCH.1080p.BluRay.x264-Ulysse
Writing library : x264 core 155 r2901 7d0ff22
Encoding settings : cabac=1 / ref=5 / deblock=1:0:0 / analyse=0x3:0x113 / me=umh / subme=8 / psy=1 / psy_rd=1.00:0.00 / mixed_ref=1 / me_range=16 / chroma_me=1 / trellis=1 / 8x8dct=1 / cqm=0 / deadzone=21,11 / fast_pskip=1 / chroma_qp_offset=-2 / threads=18 / lookahead_threads=3 / sliced_threads=0 / nr=0 / decimate=1 / interlaced=0 / bluray_compat=0 / constrained_intra=0 / bframes=3 / b_pyramid=2 / b_adapt=2 / b_bias=0 / direct=3 / weightb=1 / open_gop=0 / weightp=2 / keyint=240 / keyint_min=24 / scenecut=40 / intra_refresh=0 / rc_lookahead=50 / rc=2pass / mbtree=1 / bitrate=9655 / ratetol=1.0 / qcomp=0.60 / qpmin=0 / qpmax=69 / qpstep=4 / cplxblur=20.0 / qblur=0.5 / ip_ratio=1.40 / aq=1:1.00
Language : English
Default : Yes
Forced : No

Audio
ID : 2
Format : DTS
Format/Info : Digital Theater Systems
Codec ID : A_DTS
Duration : 1 h 41 min
Bit rate mode : Constant
Bit rate : 1 509 kb/s
Channel(s) : 6 channels
Channel positions : Front: L C R, Side: L R, LFE
Sampling rate : 48.0 kHz
Frame rate : 93.750 FPS (512 SPF)
Bit depth : 24 bits
Compression mode : Lossy
Stream size : 1.07 GiB (14%)
Title : Taxi.5.2018.FRENCH.1080p.BluRay.x264-Ulysse
Language : French
Default : Yes
Forced : No

Text
ID : 3
Format : UTF-8
Codec ID : S_TEXT/UTF8
Codec ID/Info : UTF-8 Plain Text
Duration : 1 h 35 min
Bit rate : 61 b/s
Count of elements : 1731
Stream size : 43.3 KiB (0%)
Language : English
Default : Yes
Forced : No

Menu
00:00:00.000 : en:00:00:00.000
00:09:24.167 : en:00:09:24.167
00:17:19.417 : en:00:17:19.417
00:27:35.000 : en:00:27:35.000
00:34:09.750 : en:00:34:09.750
00:41:46.833 : en:00:41:46.833
00:50:04.125 : en:00:50:04.125
00:58:29.625 : en:00:58:29.625
01:06:05.708 : en:01:06:05.708
01:14:53.167 : en:01:14:53.167
01:23:59.333 : en:01:23:59.333
01:32:28.750 : en:01:32:28.750






Taxi.5.2018.FRENCH.1080p.BluRay.x264-Ulysse[BT天堂 www.btbt4.com].torrent (79.98 KB, 下载次数: 43)
回复

使用道具 举报

小黑屋|西西论坛

本网站所有资源来自网络,如无意中侵犯了您的权益,请发邮件至 [email protected],立即清除相关链接

GMT+8, 2018-12-17 20:26 , Processed in 0.092468 second(s), 23 queries .

Powered by Discuz! X3.2

© 2001-2013 Comsenz Inc.

快速回复 返回顶部 返回列表